#TITLE:Horizons of Chaos II;
#SUBTITLE:By young_editer@hotmail.com;
#ARTIST:The Faceless;
#TITLETRANSLIT:;
#SUBTITLETRANSLIT:;
#ARTISTTRANSLIT:;
#GENRE:;
#CREDIT:;
#BANNER:;
#BACKGROUND:;
#LYRICSPATH:;
#CDTITLE:Nepex-Chart.bmp;
#MUSIC:05 Horizons of Chaos II - Hypocrisy.mp3;
#OFFSET:0.380;
#SAMPLESTART:13.000;
#SAMPLELENGTH:12.000;
#SELECTABLE:YES;
#BPMS:0.000=240.001,180.500=170.201,224.833=162.501,225.000=220.001,226.500=110.001,227.000=220.001,228.500=110.001,229.500=220.001,231.000=110.001,231.500=220.001,235.500=110.001,236.000=220.001,237.500=110.001,238.500=220.001,240.000=110.001,240.500=220.001,245.500=110.001,246.000=220.001,247.500=110.001,248.500=220.001,250.000=110.001,250.500=220.001,254.500=110.001,255.000=220.001,256.500=110.001,257.500=220.001,259.000=110.001,259.500=220.001,265.000=110.001,266.000=264.001,266.000=132.001,267.000=264.001,267.000=240.001,406.000=120.001,406.500=240.001,417.500=120.001,418.000=240.001,498.500=290.500,503.000=134.960,610.500=170.200,655.938=233.421,656.000=219.301,656.000=220.001,657.500=109.661,657.500=110.001,658.000=219.301,658.000=220.001,659.500=109.660,659.500=110.000,660.500=219.301,660.500=220.001,662.000=109.640,662.000=110.000,662.500=219.301,662.500=220.001,666.500=109.660,666.500=110.000,667.000=219.301,667.000=220.001,668.500=109.660,668.500=110.000,669.500=219.301,669.500=220.001,671.000=109.640,671.000=110.000,671.500=219.301,671.500=220.001,676.500=109.660,676.500=110.000,677.000=209.301,677.000=220.001,678.500=109.640,678.500=110.000,679.500=219.300,679.500=220.000,681.000=109.640,681.000=110.000,681.500=219.300,681.500=220.000,685.500=110.000,686.000=220.000,687.500=110.000,688.500=220.000,690.000=110.000,690.500=220.000;
#STOPS:50.000=0.375
,210.500=0.294
,212.667=0.176
,212.667=0.118
,224.833=0.185
,224.833=0.123
,395.500=0.250
,398.500=0.250
,401.500=0.250
,404.500=0.250
,407.000=0.250
,410.000=0.250
,413.000=0.250
,416.000=0.250
,498.000=1.250
,500.500=1.033
,502.500=0.207
,517.500=0.111
,517.750=0.333
,548.500=0.111
,548.750=0.333
,563.500=0.445
,566.000=0.222
,568.500=0.222
,570.000=0.222
,570.500=0.222
,573.000=0.222
,575.500=0.222
,577.000=0.222
,640.500=0.156
,643.000=0.156
,655.667=0.256
,695.333=8.200
;
#BGCHANGES:;
#KEYSOUNDS:;

//---------------dance-single - Progressive Death Me----------------
#NOTES:
     dance-single:
     Progressive Death Me:
     Hard:
     14:
     1.000,0.854,1.000,1.000,1.000:


0000
0000
0000
0000
0000
0000
0000
0000
0100
0100
0100
0000
0001
0000
0100
0000
,
0010
0000
1000
0000
0010
0010
0010
0000
0100
0000
0001
0000
1000
0000
0001
0000
,
0010
0000
0000
0010
0000
0000
0010
0000
0000
0000
0000
0000
0001
0000
0000
0000
0000
0000
0100
0000
0000
0000
0000
0000
0001
0000
0000
0000
0010
0000
0000
0000
0100
0000
0000
0000
1000
0000
0000
0000
0001
0000
0000
0000
0010
0000
0000
0000
,
0100
0000
0000
0000
1000
0000
0000
0000
0001
0000
0000
0000
0010
0000
0000
0000
0100
0000
0000
0000
1000
0000
0000
0000
0001
0000
0000
0001
0000
0000
0001
0000
0000
0000
0000
0000
0100
0000
0000
0000
0000
0000
0010
0000
0000
0000
0000
0000
,
1000
0000
0010
0000
0100
0100
0100
0000
0010
0000
1000
0000
0001
0000
1000
0000
,
0100
0000
0000
0100
0000
0000
0100
0000
0000
0000
0000
0000
0010
0000
0000
0000
0000
0000
0100
0000
0000
0000
0000
0000
1000
0000
0000
0000
0100
0000
0000
0000
0010
0000
0000
0000
0001
0000
0000
0000
1000
0000
0000
0000
0100
0000
0000
0000
,
0010
0000
0000
0000
0001
0000
0000
0000
1000
0000
0000
0000
0100
0000
0000
0000
0010
0000
0000
0000
0001
0000
0000
0000
1100
0000
0000
0100
0000
0000
1100
0000
0000
0000
0000
0000
0101
0000
0000
0000
0000
0000
0110
0000
0000
0000
0000
0000
,
0011
0000
1010
0000
1100
0100
1100
0000
0011
0000
0110
0000
1010
0000
0101
0000
,
0011
0000
0000
0001
0000
0000
0011
0000
0000
0000
0000
0000
0110
0000
0000
0000
0000
0000
1100
0000
0000
0000
0000
0000
0001
0000
0000
0000
0010
0000
0000
0000
0100
0000
0000
0000
1000
0000
0000
0000
0001
0000
0000
0000
0010
0000
0000
0000
,
0100
1000
0001
0010
0100
1000
0011
0110
0101
0011
1100
0110
,
1010
0101
1001
0101
0011
1010
1100
1001
0110
0101
1010
0011
,
1001
1100
1010
0110
0101
0011
1000
0100
0010
0001
1000
0100
,
0010
0000
0000
0000
0001
0000
0000
0000
1000
0000
0000
0000
0100
0000
0000
0000
0010
0000
0000
0000
0001
0000
0000
0000
1100
0000
0000
0000
0000
0000
0010
0000
0000
0100
0000
0000
0010
0000
0000
0100
0000
0000
0010
0000
0000
0100
0000
0000
,
0010
0100
0020
1030
0002
0103
0020
1030
0200
0310
0002
0023
0230
1300
0010
0100
,
0010
1000
0020
1030
0200
0310
0002
1003
0020
0130
0002
0023
0230
0301
0100
1000
,
0001
0010
2000
3010
0002
0103
0020
1030
0200
0310
0002
0023
0230
1300
0010
1000
,
0100
0001
0200
0310
2000
3010
0200
0310
0002
1003
0200
0320
0032
0013
0001
0100
,
0010
0100
0002
0103
0020
1030
0002
0103
2000
3100
2000
3200
0320
1030
0010
0100
,
0010
1000
0002
0103
0020
0130
0002
1003
0020
0130
0002
0023
0230
0310
0001
0100
,
0010
1000
0002
0103
2000
3100
0002
0103
2000
3100
0020
0230
2300
3100
0010
1000
,
0010
0100
0002
0013
0002
0103
0020
1030
0200
0310
0002
0023
0230
0310
0001
0100
,
0001
0100
0020
1030
0020
0130
0002
0103
0020
0130
2000
3200
0320
0130
0010
1000
,
0001
0100
0002
0013
0200
0310
0002
1003
0020
0130
0002
0023
0230
0310
0001
1000
,
0100
0010
0002
0103
0020
1030
0002
0103
0020
1030
0200
0320
0032
0013
0100
0010
,
0001
0100
0020
1030
0002
0103
0020
1030
0020
0031
0020
0230
2300
3100
0001
0100
,
0010
1000
0002
0103
0020
0130
0002
1003
0020
0130
0020
0230
2300
3000
0100
0010
,
0100
0001
0200
0310
2000
3010
0200
0301
2000
3010
0200
0320
0032
0013
0100
0001
,
0010
0100
0020
0031
0200
0310
2000
3010
0200
0301
2000
3200
0320
0031
0100
0010
,
0100
0001
2000
3010
0200
0301
0020
0031
2000
3100
0002
0023
0230
0300
0000
0000
,
0000
0000
0001
0000
0100
0000
1000
0000
0001
0000
1100
0010
0100
0010
0100
0010
,
0100
0000
0010
0000
1000
0000
0001
0000
1000
0000
0011
0100
0010
0100
0010
1000
,
0100
0000
0010
0000
0001
0000
0100
0000
0010
0000
1100
0010
0001
0010
0100
0010
,
0100
0000
0001
0000
1000
0000
0010
0000
0100
0000
0010
1000
0010
0100
0010
0000
,
0100
0000
0001
0000
0100
0000
0001
0000
1000
0000
0011
1000
0100
0010
0001
0010
,
0100
0000
0001
0000
0100
0000
1000
0000
0010
0000
0101
1000
0100
0010
0001
0010
,
0100
0000
0001
0000
1000
0000
0001
0000
1000
0000
0101
0010
0001
0010
0100
0000
,
1000
0000
0010
0100
0010
0100
0010
0100
0001
1000
0001
1000
0001
1000
0011
0000
,
0110
0000
1000
0000
0010
0000
1000
0000
0001
0000
1100
0010
0100
0010
0100
0010
,
0100
0000
0010
0000
1000
0000
0001
0000
1000
0000
1001
0100
0010
0100
0010
1000
,
0100
0000
0010
0000
0001
0000
0100
0000
0010
0000
1100
0010
0001
0010
0100
0010
,
0100
0000
0001
0000
1000
0000
0010
0000
0100
0000
0011
1000
0010
0100
0010
0000
,
0100
0000
0001
0000
0100
0000
0001
0000
1000
0000
0110
1000
0100
0010
0001
0010
,
0100
0000
0001
0000
0100
0000
1000
0000
0010
0000
0101
1000
0100
0010
0001
0010
,
0100
0000
0001
0000
1000
0000
0001
0000
1000
0000
0110
0001
0100
0010
1000
0100
,
0010
0000
0001
0000
0100
0000
0010
0000
1000
0000
0110
0001
0100
0000
1010
0000
,
0001
0000
1000
0010
0100
0010
1000
0100
0010
0100
0010
0001
0100
0001
0100
0001
,
0010
0001
0010
0000
0001
0000
0100
0000
0010
0000
1000
0000
0100
0000
0010
0000
0100
0000
1000
0000
0001
0000
0100
0000
0010
0000
0001
0000
0010
0000
0100
0000
,
0001
0010
0100
1000
0100
0010
0100
0010
0001
0100
0001
1000
0100
0010
0100
1000
,
0010
0000
0000
0100
0000
0000
0001
0000
0000
1000
0000
0000
0010
0000
0100
0000
0010
0000
0100
0000
0000
0001
0000
0000
1000
0000
0010
0000
1000
0000
0010
0000
0000
0100
0000
0000
0010
0000
0000
1000
0000
0000
0001
0000
0000
0100
0000
0000
,
0010
0001
0010
0100
0001
0100
0010
0001
0010
0100
0010
1000
0100
0010
0100
0010
,
0100
0001
0100
0010
0001
0100
0010
0001
0010
1000
0010
0100
0001
1000
0001
0000
,
0000
0000
0000
0100
0010
1000
0001
0100
0001
0100
0010
0100
0010
1000
0001
0100
0001
0100
0010
0100
0001
1000
0100
0010
,
0100
1000
0001
0100
0001
1000
0100
1000
0001
0100
0010
0100
0001
1000
0001
0100
0001
0100
0010
1000
0100
0010
0100
0010
,
0001
0100
0001
0100
0010
1000
0001
0100
0001
0010
0000
0001
0000
0010
0000
0100
0000
2020
3030
0001
0000
0010
0000
0100
,
0000
1000
0000
0001
0000
0220
0330
0001
0000
1000
0000
0100
0000
0010
0000
0001
0000
2020
3030
0100
0000
0010
0000
0001
,
0000
1000
0000
0100
0000
2020
3030
0001
0000
1000
0000
0100
0000
0010
0000
0001
0000
1000
0000
0100
0000
0010
0000
0001
,
0000
0000
1000
0000
0000
0000
0100
0000
0000
0000
0011
0000
1000
0000
0000
0001
0000
0000
0100
0000
0000
0010
0000
0000
0100
0000
0000
0001
0000
0000
2020
0000
0000
3030
0000
0000
0001
0000
0000
0100
0000
0000
0010
0000
0000
1000
0000
0000
,
0001
0100
0022
0033
2002
3003
0010
0100
0001
0010
0100
1000
0022
0033
1000
0010
,
0100
0000
0000
0001
0000
0000
1000
0000
0000
0001
0000
0000
0010
0000
0100
0000
1000
0000
0000
0000
0000
0000
0000
0000
0001
0000
0000
1000
0000
0000
0010
0000
0000
0100
0000
0000
0001
0000
0000
1000
0000
0000
0220
0000
0000
0330
0000
0000
,
1000
0001
0100
0001
0010
0100
0022
0033
2020
3030
0001
0100
0010
1000
0001
0100
,
0022
0000
0000
0033
0000
0000
1000
0000
0000
0010
0000
0000
0100
0000
0000
0001
0000
0000
1000
0000
0000
0001
0000
0000
0100
0000
0010
0000
0001
0000
0000
0000
0000
0000
0000
0000
0010
0000
0100
0000
1000
0000
0000
0000
0000
0000
0000
0000
,
0010
0001
0100
0010
0100
0001
2020
3030
0001
0100
0010
1000
0001
0100
0022
0033
,
2002
3003
0010
0100
0001
0010
0100
1000
0022
0033
1000
0010
0100
0001
1000
0001
,
0010
0000
0100
0000
1000
0000
0000
0000
0000
0000
0000
0000
0001
0000
0000
1000
0000
0000
0010
0000
0000
0100
0000
0000
0001
0000
0000
1000
0000
0000
0220
0000
0000
0330
0000
0000
1000
0000
0000
0001
0000
0000
0100
0000
0000
0001
0000
0000
,
0010
0100
2002
3003
2020
3030
0001
0100
0010
1000
0001
0100
0022
0033
1000
0010
,
0100
0000
0000
0001
0000
0000
1000
0000
0000
0001
0000
0000
0100
0000
0010
0000
0001
0000
0000
0000
0000
0000
0000
0000
0010
0000
0100
0000
1000
0000
0000
0000
0000
0000
0000
0000
0100
0000
0010
0000
0001
0000
0000
0000
0000
0000
0000
0000
,
0010
0000
0000
0000
0000
0000
0000
0000
0100
0000
0000
0000
0000
0000
0000
0000
1000
0000
0000
0000
0000
0000
0000
0000
0000
0000
0000
0000
0000
0000
0000
0000
0000
0000
0000
0000
0000
0000
0000
0000
0000
0000
0000
0000
0000
0000
0000
0000
2002
0000
0000
0000
0000
0000
0000
0000
0000
0000
0000
0000
0000
0000
0000
0000
0000
0000
0000
0000
0000
0000
0000
0000
0000
0000
0000
0000
0000
0000
0000
0000
0000
0000
0000
0000
0000
0000
0000
0000
0000
0000
3003
0000
0000
0000
0000
0000
2020
0000
0000
0000
0000
0000
0000
0000
0000
0000
0000
0000
0000
0000
0000
0000
0000
0000
0000
0000
0000
0000
0000
0000
0000
0000
0000
0000
0000
0000
0000
0000
0000
0000
0000
0000
0000
0000
0000
0000
0000
0000
3030
0000
0000
0000
0000
0000
0200
0000
0000
0000
0000
0000
0000
0000
0000
0000
0000
0000
0300
0000
0000
0000
0000
0000
0000
0000
0000
0000
0000
0000
0002
0000
0000
0000
0000
0000
0000
0000
0000
0000
0000
0000
0003
0000
0000
0000
0000
0000
0000
0000
0000
0000
0000
0000
,
0200
0300
0020
0030
2001
3200
0320
0030
0001
0000
0100
0000
0002
0003
0200
0300
,
0020
0030
2000
3000
0102
0023
0230
0300
1000
0000
1000
0000
0020
0030
2000
3000
,
0200
0300
0020
0030
1200
0320
0032
0003
1000
0000
0001
0000
0020
0030
0002
0003
,
0200
0300
0020
0030
2001
3200
0320
0030
0001
0000
0100
0000
0002
0003
0200
0300
,
2000
3000
0200
0300
0021
0230
2300
3000
0100
0000
0010
0000
0200
0300
0020
0030
,
2000
3000
0200
0300
0021
0230
2300
3000
0010
0000
1000
0000
0002
0003
0200
0300
,
0002
0003
0020
0030
1002
0023
0230
0300
0010
0000
0001
0000
1000
0100
1000
0100
,
1000
0100
1000
0100
0010
0001
0010
0001
0010
0001
0010
0001
0020
0030
0002
0003
,
0200
0300
0020
0030
2001
3200
0320
0030
0001
0000
0100
0000
0002
0003
0200
0300
,
0020
0030
2000
3100
1002
0023
0230
0300
1000
0000
1000
0000
0020
0030
2000
3000
,
0200
0300
0020
0031
1200
0320
0032
0003
1000
0000
0001
0000
0020
0030
0002
0003
,
0200
0300
0020
0130
2001
3200
0320
0030
0001
0000
0100
0000
0002
0003
0200
0300
,
2000
3000
0200
0300
0021
0230
2300
3000
0100
0000
0010
0000
0200
0300
0020
0030
,
2000
3000
0200
0300
0021
0230
2300
3000
0010
0000
1000
0000
0002
0003
0200
0300
,
0002
0003
0020
0030
1002
0023
0230
0300
0010
0000
0001
0000
2000
3000
0200
0300
,
0002
0003
0200
0300
0021
0230
2300
3000
0000
0000
0000
0000
0001
0000
0100
0000
,
1000
0000
0001
0000
1100
0010
0100
0010
0100
0010
0100
0000
0010
0000
1000
0000
,
0001
0000
1000
0000
0011
0100
0010
0100
0010
1000
0100
0000
0010
0000
0001
0000
,
0100
0000
0010
0000
1100
0010
0001
0010
0100
0010
0100
0000
0001
0000
1000
0000
,
0010
0000
0100
0000
0010
1000
0010
0100
0010
0000
0100
0000
0001
0000
0100
0000
,
0001
0000
1000
0000
0011
1000
0100
0010
0001
0010
0100
0000
0001
0000
0100
0000
,
1000
0000
0010
0000
0101
1000
0100
0010
0001
0010
0100
0000
0001
0000
1000
0000
,
0001
0000
1000
0000
0101
0010
0001
0010
0100
0000
1000
0000
0010
0100
0010
0100
,
0010
0100
0001
1000
0001
1000
0001
1000
0011
0000
0110
0000
1000
0000
0010
0000
,
1000
0000
0001
0000
1100
0010
0100
0010
0100
0010
0100
0000
0010
0000
1000
0000
,
0001
0000
1000
0000
1001
0100
0010
0100
0010
1000
0100
0000
0010
0000
0001
0000
,
0100
0000
0010
0000
1100
0010
0001
0010
0100
0010
0100
0000
0001
1000
0001
1000
,
0010
0100
0010
0100
0001
1000
0001
1000
0010
0100
0010
0100
0010
0000
0100
0000
,
0001
0000
1000
0000
0110
1000
0100
0010
0001
0010
0100
0000
0001
0000
0100
0000
,
1000
0000
0010
0000
0101
1000
0100
0010
0001
0010
0100
0000
0001
0000
1000
0000
,
0001
0000
1000
0000
0110
0001
0100
0010
1000
0100
0010
0000
0001
0000
0100
0000
,
0010
0000
1000
0000
0110
0001
0100
0000
1010
0000
0001
0000
1100
0000
0110
0000
,
0001
0010
0100
1000
0100
0010
0001
1000
0110
0000
0101
0000
0010
0100
0001
1000
,
0010
0100
0001
0010
1001
0000
0110
0000
1000
0001
0100
0001
1000
0010
0100
1000
,
0110
0000
0000
0000
1010
0000
0000
0000
0011
0000
0000
0000
0110
0000
0000
0000
2020
0000
0000
3030
0011
0000
0000
0000
1010
0000
0000
0000
0100
0000
0010
0000
,
0100
0010
1000
0010
0001
0010
0101
0000
1010
0000
0010
0100
0010
1000
0100
0010
,
0001
0100
1001
0000
0011
0000
1000
0010
0100
0010
1000
0100
0010
0001
0110
0000
,
1010
0000
0000
0000
0110
0000
0000
0000
0011
0000
0000
0000
2020
0000
0000
3030
0110
0000
0000
0000
1000
0000
0000
0000
0100
0000
0000
0000
0010
0000
0000
0000
,
0001
0010
0100
1000
0100
0010
0001
1000
0110
0000
0011
0000
0100
0000
1000
0000
,
0010
0100
0001
1000
0010
0100
0001
0010
1001
0000
1010
0000
0100
0000
0010
0000
,
1000
0001
0100
0001
1000
0010
0100
1000
0110
0000
0011
0000
1000
0000
0100
0000
,
0010
1000
0010
1000
0110
0000
1000
0000
0011
0000
0110
0000
1000
0000
0001
0000
,
0100
0010
0100
0010
1000
0010
0001
0010
0101
0000
0110
0000
0001
0000
1000
0000
,
0010
0100
0010
1000
0100
0010
0001
0100
1001
0000
0011
0000
0100
0000
0001
0000
,
1000
0010
0100
0010
1000
0100
0010
0001
0110
0000
1010
0000
0101
0000
0000
0000
,
0010
0100
0010
0100
0010
0100
0010
0100
0010
0010
0010
0000
0001
0000
0100
0000
,
0010
0000
1000
0000
0010
0010
0010
0000
0100
0000
0001
0000
1000
0000
0001
0000
,
0010
0000
0000
0010
0000
0000
0010
0000
0000
0000
0000
0000
0001
0000
0000
0000
0000
0000
0100
0000
0000
0000
0000
0000
0001
0000
0000
0000
0010
0000
0000
0000
0100
0000
0000
0000
1000
0000
0000
0000
0001
0000
0000
0000
0010
0000
0000
0000
,
0100
0000
0000
0000
1000
0000
0000
0000
0001
0000
0000
0000
0010
0000
0000
0000
0100
0000
0000
0000
1000
0000
0000
0000
0001
0000
0000
0001
0000
0000
0001
0000
0000
0000
0000
0000
0100
0000
0000
0000
0000
0000
0010
0000
0000
0000
0000
0000
,
1000
0000
0010
0000
0100
0100
0100
0000
0010
0000
1000
0000
0001
0000
1000
0000
,
0100
0000
0000
0100
0000
0000
0100
0000
0000
0000
0000
0000
0010
0000
0000
0000
0000
0000
0100
0000
0000
0000
0000
0000
1000
0000
0000
0000
0100
0000
0000
0000
0010
0000
0000
0000
0001
0000
0000
0000
1000
0000
0000
0000
0100
0000
0000
0000
,
0010
0000
0000
0000
0001
0000
0000
0000
1000
0000
0000
0000
0100
0000
0000
0000
0010
0000
0000
0000
0001
0000
0000
0000
1100
0000
0000
1000
0000
0000
1100
0000
0000
0000
0000
0000
0101
0000
0000
0000
0000
0000
0110
0000
0000
0000
0000
0000
,
0011
0000
1010
0000
1100
0100
1100
0000
0011
0000
0110
0000
1010
0000
0101
0000
,
0011
0000
0000
0001
0000
0000
0011
0000
0000
0000
0000
0000
0110
0000
0000
0000
0000
0000
1100
0000
0000
0000
0000
0000
0001
0000
0000
0000
0010
0000
0000
0000
0100
0000
0000
0000
1000
0000
0000
0000
0001
0000
0000
0000
0010
0000
0000
0000
,
0100
0000
0000
0000
1000
0000
0000
0000
0001
0000
0000
0000
0010
0000
0000
0000
0100
0000
0000
0000
1000
0000
0000
0000
0010
0000
0000
0010
0000
0000
0010
0000
0000
0000
0000
0000
0001
0000
0000
0000
0000
0000
0100
0000
0000
0000
0000
0000
,
0010
0000
1000
0000
0010
0010
0010
0000
0100
0000
0001
0000
1000
0000
0001
0000
,
0010
0000
0000
0010
0000
0000
0010
0000
0000
0000
0000
0000
0001
0000
0000
0000
0000
0000
0100
0000
0000
0000
0000
0000
1000
0000
0000
0000
0100
0000
0000
0000
0010
0000
0000
0000
0001
0000
0000
0000
1000
0000
0000
0000
0100
0000
0000
0000
,
0010
0000
0001
0000
1000
0000
0100
0000
0010
0000
0001
0000
1010
0000
0000
1100
0000
0000
0101
0000
0000
1100
0000
0000
,
0000
1001
0010
0100
0001
1010
2002
0000
,
0000
3003
0110
0000
1010
0000
0000
0000
0011
0000
0000
0000
0000
0000
2200
0000
,
0000
0000
0000
0000
0000
0000
0000
0000
0000
0000
3300
0000
2002
0100
0010
0100
0010
0000
0000
0000
0010
0000
3103
0000
1010
0000
0000
0000
0000
0000
0110
0000
,
0000
0000
0000
0000
0011
0000
0000
0000
0200
0000
0000
0000
0000
0000
0000
0000
0000
0000
0000
0000
0000
0000
0300
0000
0011
0000
0000
0000
0000
0000
0010
0100
,
1000
0000
0002
0000
0000
0000
0000
0000
0000
0000
0003
0000
0110
0000
0000
0000
0000
0000
1010
0000
0000
0110
0000
0000
2002
0000
0000
0000
0000
0000
0000
0000
0000
0000
0000
0000
0000
0000
0000
3003
0000
0000
0110
0000
0000
0000
0000
0000
,
0101
0000
1100
0000
0000
0022
0000
0000
,
0000
0000
0033
0000
2002
0100
0010
0100
0010
0000
0000
0000
0100
0000
3013
0000
0101
0000
0000
0000
0000
0000
0110
0000
0000
0000
0000
0000
1100
0000
0000
0000
,
0020
0000
0000
0000
0000
0000
0000
0000
0000
0000
0000
0000
0000
0000
0000
0000
0000
0000
0000
0000
0000
0000
0000
0000
0000
0000
0000
0000
0000
0000
0000
0000
0000
0000
0000
0000
0000
0000
0000
0000
0000
0000
0000
0000
0000
0000
0000
0000
0000
0000
0000
0000
0000
0000
0000
0000
0000
0000
0000
0000
0000
0000
0000
0000
0000
0000
0000
0000
0000
0000
0000
0000
0000
0000
0000
0000
0000
0000
0000
0000
0000
0000
0000
0000
0030
0000
0000
0000
0000
0000
0000
0000
0000
0000
0000
0000
1100
0000
0000
0000
0000
0000
0000
0000
0000
0000
0000
0000
0000
0000
0000
0000
0000
0000
0000
0000
0000
0000
0000
0000
0000
0000
0000
0000
0000
0000
0100
0000
0000
0000
0000
0000
0001
0000
0000
0000
0000
0000
0100
0000
0000
0000
0000
0000
0001
0000
0000
0000
0000
0000
0000
0000
2000
0000
0000
0000
0000
0000
0000
0000
0000
0000
0000
0000
0000
0000
0000
0000
0000
0000
0000
0000
0000
0000
0000
0000
0000
0000
0000
0000
0000
0000
0000
0000
3000
0000
0000
0000
0000
0000
0000
0000
,
0110
0000
0000
0000
0110
0001
0100
0001
0100
0001
0100
0001
0100
0001
0100
0001
2020
0000
0000
0000
0000
0000
0000
0000
0000
0000
3030
0000
0101
0000
0000
0000
,
0110
0000
0011
0000
0000
2200
0000
0000
,
0000
0000
3300
0000
2002
0010
0100
0010
0100
0000
0000
0000
0010
0000
3103
0000
1010
0000
0000
0000
0000
0000
0110
0000
0000
0000
0000
0000
0011
0000
0000
0000
,
0200
0000
0000
0000
0000
0000
0000
0000
0000
0000
0000
0000
0000
0000
0000
0000
0000
0000
0000
0000
0000
0300
0000
0000
0011
0000
0000
0000
0000
0000
0100
0000
0000
0010
0000
0000
1000
0000
0002
0000
0000
0000
0000
0000
0000
0000
0003
0000
,
0110
0000
0000
0000
0000
0000
1010
0000
0000
0110
0000
0000
2002
0000
0000
0000
0000
0000
0000
0000
0000
0000
0000
0000
0000
0000
0000
3003
0000
0000
0110
0000
0000
0000
0000
0000
1010
0000
0000
0000
0100
0000
0001
0000
0000
0000
0000
0000
,
1000
0000
0000
0000
0010
0000
0000
0000
0001
0000
0000
0000
1000
0000
0000
0000
0001
0000
0000
0000
0200
0000
0000
0000
0000
0000
0000
0000
2302
0010
0100
0010
,
0100
0000
0000
0000
0000
0000
0000
0000
0000
3003
0000
0000
1000
0000
0100
0000
0010
0000
0001
0000
1000
0000
0100
0000
0010
0000
0000
0000
0000
0000
0000
0000
0000
0000
0000
0000
0001
0000
0000
0000
0000
0000
0000
0000
0010
0000
0000
0000
,
0000
0000
0000
0000
0000
0000
0000
0000
0000
0000
0000
0000
0000
0000
0000
0000
0100
0000
0000
0000
0000
0000
0000
0000
0000
0000
0000
0000
0000
0000
0000
0000
0000
0000
0000
0000
0000
0000
0000
0000
0000
0000
1000
0000
0000
0000
0000
0000
0001
0000
0000
0000
0000
0000
0000
0000
0010
0000
0000
0000
0000
0000
0000
0000
0100
0000
0000
0000
0000
0000
0000
0000
1000
0000
0000
0000
0000
0000
0000
0000
0100
0000
0000
0000
0000
0000
0000
0000
0010
0000
0000
0000
0000
0000
0000
0000
0001
0000
0000
0000
0000
0000
0000
0000
0000
0000
0000
0000
0000
0000
0000
0000
0000
0000
0000
0000
0000
0000
0000
0000
0000
0000
0000
0000
0000
0000
0000
0000
0000
0000
0000
0000
0000
0000
0000
0000
0000
0000
0000
0000
0000
0000
0000
0000
0110
0000
0000
0000
0000
0000
0000
0000
0000
0000
0000
0000
0000
0000
0000
0000
0000
0000
0000
0000
0000
0000
0000
0000
1001
0000
0000
0000
0000
0000
0000
0000
0000
0000
0000
0000
0000
0000
0000
0000
0000
0000
0000
0000
0000
0000
0000
0000
,
0110
1010
0101
0110
1001
0101
0011
1010
,
1100
1001
0110
1001
0101
1001
0101
1100
,
0101
1010
1001
1100
0110
0101
1010
1001
,
0101
0110
1001
0101
0110
1010
0110
1010
,
0101
0000
0000
1001
0000
0000
0110
0000
0000
1010
0000
0000
0011
0100
0010
1100
0000
0000
0110
0000
0000
1010
0000
0000
,
0101
0000
0000
0011
0000
0000
1001
0000
0000
0110
0000
0000
0101
1000
0001
1100
0000
0000
0110
0000
0000
0011
0000
0000
,
1010
0000
0000
0000
0110
0000
0000
0000
1010
0000
0000
0000
0101
0000
0000
0000
0011
0000
0000
0000
1001
0000
0000
0000
1010
0100
0010
0000
1001
0000
0000
0000
,
1010
0000
0000
0000
0110
0000
0000
0000
1001
0010
0001
0000
1100
0000
0000
0000
0110
0000
0000
0000
1001
0000
0000
0000
1100
0001
0100
0010
0100
0010
1000
0010
,
0100
0010
0100
0010
1000
0100
0010
0100
0010
0001
0100
0001
0100
0010
0100
0010
1000
0100
1000
0001
0100
0001
1000
0100
1000
0010
0100
0010
1000
0010
0100
0010
,
1000
0010
0100
0010
1000
0010
0100
0001
0100
0001
0100
0001
0100
0010
0100
0010
0100
0001
0100
0001
0010
0001
0010
0001
0100
0001
0100
0010
0100
0010
1000
0010
,
1000
0010
1000
0001
0100
0001
0100
0001
0010
0001
0010
0001
1000
0001
1000
0100
1000
0100
1000
0010
0100
0010
1000
0010
0100
0010
1000
0010
0100
0001
0100
0010
,
0001
0010
0100
0010
0001
0010
0100
0010
1000
0010
0100
0010
1000
0100
1000
0001
0100
0001
1000
0010
1000
0000
0010
0000
0100
0000
0010
0000
1000
0000
0100
0000
,
0010
0100
0010
0001
0100
0001
0100
0001
0010
0001
1000
0100
1000
0010
0100
0010
,
1000
0000
0100
0000
0010
0000
0001
0000
0100
0010
0100
0000
0001
0000
0100
0000
0001
0000
0010
0000
0100
0000
1000
0000
0100
0000
0010
0000
0100
0000
0010
0000
,
0001
0000
0000
0100
0000
0000
0001
0000
0000
1000
0000
0000
0100
0000
0000
0010
0000
0000
0100
0000
0000
1000
0000
0000
0010
0000
0000
0100
0000
0000
0001
0000
0000
1000
0000
0000
0010
0000
0100
0000
0010
0000
0100
0000
0000
0001
0000
0000
,
1000
0000
0010
0000
1000
0000
0010
0000
0000
0100
0000
0000
0010
0000
0000
1000
0000
0000
0001
0000
0000
0100
0000
0000
0010
0000
0000
0001
0000
0000
0010
0000
0000
0100
0000
0000
0001
0000
0000
0100
0000
0000
0010
0000
0000
0001
0000
0000
,
0010
0100
0010
1000
0100
0010
0100
0010
0100
0001
0100
0010
0001
0100
0010
0001
,
0010
0000
0000
1000
0000
0000
0010
0000
0000
0100
0000
0000
0001
0000
0000
1000
0000
0000
0001
0000
0000
0000
0000
0000
0000
0000
0000
0000
0000
0000
0100
0000
0010
0000
1000
0000
0001
0000
0100
0000
0001
0000
0100
0000
0010
0000
0100
0000
,
0010
1000
0001
0100
0001
0100
0010
0100
0001
1000
0100
0010
0100
1000
0001
0100
0001
1000
0100
1000
0001
0100
0010
0100
,
0001
0100
0010
1000
0000
0000
0010
1000
0010
0100
0010
1000
0001
0100
0010
0001
0010
0100
1000
0000
0000
0010
1000
0001
,
0100
0001
0010
0000
0001
0000
0010
0000
0100
0000
2020
3030
0001
0000
0010
0000
0100
0000
1000
0000
0001
0000
0220
0330
,
0001
0000
1000
0000
0100
0000
0010
0000
0001
0000
2020
3030
0100
0000
0010
0000
0001
0000
1000
0000
0100
0000
2020
3030
,
0001
1000
0100
0010
0001
1000
0100
0010
0001
1000
0100
0011
,
1000
0001
0100
0010
0100
0001
2020
3030
0001
0100
0010
1000
0001
0100
0022
0033
,
2002
3003
0010
0100
0001
0010
0100
1000
0022
0033
1000
0010
0100
0001
1000
0001
,
0010
0000
0100
0000
1000
0000
0000
0000
0000
0000
0000
0000
0001
0000
0000
1000
0000
0000
0010
0000
0000
0100
0000
0000
0001
0000
0000
1000
0000
0000
0220
0000
0000
0330
0000
0000
1000
0000
0000
0001
0000
0000
0100
0000
0000
0001
0000
0000
,
0010
0100
0022
0033
2020
3030
0001
0100
0010
1000
0001
0100
0022
0033
1000
0010
,
0100
0000
0000
0001
0000
0000
1000
0000
0000
0001
0000
0000
0100
0000
0010
0000
0001
0000
0000
0000
0000
0000
0000
0000
0010
0000
0100
0000
1000
0000
0000
0000
0000
0000
0000
0000
0010
0000
0000
0001
0000
0000
0100
0000
0000
0010
0000
0000
,
0100
0001
2020
3030
0001
0100
0010
1000
0001
0100
0022
0033
2002
3003
0010
0100
,
0001
0000
0000
0010
0000
0000
0100
0000
0000
1000
0000
0000
0022
0000
0000
0033
0000
0000
1000
0000
0000
0010
0000
0000
0100
0000
0000
0001
0000
0000
1000
0000
0000
0001
0000
0000
0010
0000
0100
0000
1000
0000
0000
0000
0000
0000
0000
0000
,
0001
1000
0010
0100
0001
1000
0220
0330
1000
0001
0100
0001
0010
0100
0022
0033
,
2020
3030
0001
0100
0010
1000
0001
0100
0022
0033
1000
0010
0100
0001
1000
0001
,
0100
0010
0001
0000
0000
0000
0010
0100
1000
0000
0000
0000
0100
0010
0001
0000
0000
0000
0010
0100
1000
0000
0000
0000
;

//---------------dance-single - Copied from Progress----------------
#NOTES:
     dance-single:
     Copied from Progress:
     Medium:
     12:
     1.000,0.854,0.714,0.429,1.000:


0000
0000
0000
0000
0000
0000
0000
0000
0100
0100
0100
0000
0001
0000
0100
0000
,
0010
0000
1000
0000
0010
0010
0010
0000
0100
0000
0001
0000
1000
0000
0001
0000
,
0010
0000
0000
0010
0000
0000
0010
0000
0000
0000
0000
0000
0001
0000
0000
0000
0000
0000
0100
0000
0000
0000
0000
0000
0001
0000
0000
0000
0010
0000
0000
0000
0100
0000
0000
0000
1000
0000
0000
0000
0001
0000
0000
0000
0010
0000
0000
0000
,
0100
0000
0000
0000
1000
0000
0000
0000
0001
0000
0000
0000
0010
0000
0000
0000
0100
0000
0000
0000
1000
0000
0000
0000
0001
0000
0000
0001
0000
0000
0001
0000
0000
0000
0000
0000
0100
0000
0000
0000
0000
0000
0010
0000
0000
0000
0000
0000
,
1000
0000
0010
0000
0100
0100
0100
0000
0010
0000
1000
0000
0001
0000
1000
0000
,
0100
0000
0000
0100
0000
0000
0100
0000
0000
0000
0000
0000
0010
0000
0000
0000
0000
0000
0100
0000
0000
0000
0000
0000
1000
0000
0000
0000
0100
0000
0000
0000
0010
0000
0000
0000
0001
0000
0000
0000
1000
0000
0000
0000
0100
0000
0000
0000
,
0010
0000
0000
0000
0001
0000
0000
0000
1000
0000
0000
0000
0100
0000
0000
0000
0010
0000
0000
0000
0001
0000
0000
0000
0100
0000
0000
0100
0000
0000
0100
0000
0000
0000
0000
0000
0001
0000
0000
0000
0000
0000
0010
0000
0000
0000
0000
0000
,
0001
0000
0010
0000
0100
0100
0100
0000
0010
0000
0001
0000
0010
0000
0100
0000
,
0010
0000
0000
0010
0000
0000
0010
0000
0000
0000
0000
0000
0100
0000
0000
0000
0000
0000
0010
0000
0000
0000
0000
0000
0001
0000
0000
0000
0010
0000
0000
0000
0100
0000
0000
0000
1000
0000
0000
0000
0001
0000
0000
0000
0010
0000
0000
0000
,
0100
0000
0000
0000
1000
0000
0000
0000
0001
0000
0000
0000
0010
0000
0000
0000
0100
0000
0000
0000
1000
0000
0000
0000
0100
0000
0000
0100
0000
0000
0100
0000
0000
0000
0000
0000
0001
0000
0000
0000
0000
0000
0100
0000
0000
0000
0000
0000
,
0010
0000
1000
0000
0010
0010
0010
0000
0100
0000
0001
0000
1000
0000
0001
0000
,
0010
0000
0000
0010
0000
0000
0010
0000
0000
0000
0000
0000
0001
0000
0000
0000
0000
0000
0100
0000
0000
0000
0000
0000
1000
0000
0000
0000
0100
0000
0000
0000
0010
0000
0000
0000
0001
0000
0000
0000
1000
0000
0000
0000
0100
0000
0000
0000
,
0010
0000
0000
0000
0001
0000
0000
0000
1000
0000
0000
0000
0100
0000
0000
0000
0010
0000
0000
0000
0001
0000
0000
0000
1100
0000
0000
0000
0000
0000
0010
0000
0000
0100
0000
0000
0010
0000
0000
0100
0000
0000
0010
0000
0000
0100
0000
0000
,
0010
0000
0000
0100
0000
0000
0010
0000
0000
0000
0000
0000
1000
0000
0000
0000
0000
0000
0010
0000
0000
0000
0000
0000
0100
0000
0000
0000
0000
0000
0001
0000
0000
0000
1000
0000
0000
0000
0000
0000
0000
0000
0010
0000
0000
0000
0000
0000
,
0001
0000
0000
0010
0000
0000
0001
0000
0000
1000
0000
0000
0010
0000
0000
1000
0000
0001
0000
0000
0000
0100
0000
0000
,
0010
0000
0000
0001
0000
0000
0100
0000
0000
0010
0000
0000
1000
0000
0000
0001
0000
1000
0000
0000
0000
0010
0000
0000
,
0100
0000
1000
0000
0100
0000
0010
0000
0001
0000
0100
0010
0100
0010
0100
0010
,
0100
0010
0100
0000
0010
0000
1000
0000
0001
0000
1000
0100
0010
0000
0001
0000
,
0100
0000
0010
0000
0100
0000
0001
0000
1000
0000
0001
0010
0100
0000
0010
0000
,
0001
0000
0010
0000
1000
0000
0010
0000
0100
0000
1000
0100
0010
0000
0001
0000
,
0100
0000
0001
1000
0001
1000
0010
0100
0010
0100
0001
1000
0001
1000
0010
0100
,
0010
0000
0000
0100
0000
0000
1001
0000
0000
0000
0000
0000
0100
0000
0000
0000
0000
0000
0001
0000
0000
0000
0000
0000
0100
0000
0000
0000
0000
0000
1000
0000
0000
0000
0001
0000
0000
0000
0000
0000
0000
0000
1000
0000
0000
0000
0000
0000
,
0010
0000
0000
0100
0000
0000
0010
0000
0000
0001
0000
0000
0010
0000
0000
0001
0000
1000
0000
0000
0000
0010
0000
0000
,
1000
0000
0000
0001
0000
0000
0100
0000
0000
0010
0000
0000
1000
0000
0000
0100
0000
0010
0000
0000
0000
0100
0000
0000
,
0001
0000
0010
0000
0001
0000
0010
0000
0100
0000
0010
0001
0010
0001
0010
0001
,
0010
0001
0010
0000
0100
0000
1000
0000
0100
0000
0010
0100
1000
0000
0100
0000
,
0010
0000
0001
0000
1000
0000
0100
0000
1000
0000
0100
0010
0001
0000
0100
0000
,
0010
0000
0001
0000
0010
0000
0100
0000
0010
0000
1000
0100
0010
0000
0001
0000
,
1000
0000
0010
0000
0100
0000
0010
0000
0001
0000
1000
0100
0010
0000
0100
0000
,
0001
0000
1000
0000
0100
0000
1000
0000
0001
0000
0100
0010
0001
0010
1000
0001
,
0010
0000
0001
0000
0100
0000
0010
0000
1000
0000
0010
0100
0001
0100
0010
1000
,
0100
0000
0010
0000
0001
0000
1000
0000
0100
0000
0010
0100
1000
0010
0100
0010
,
0001
0000
0010
0000
0100
0000
0010
0000
1000
0000
0100
1000
0001
0010
0001
0000
,
1000
0000
0010
0000
0100
0000
0001
0000
0010
0000
0100
1000
0100
0010
0001
0010
,
0100
0000
0010
0000
1000
0000
0010
0000
0100
0000
0010
1000
0010
0001
0100
0010
,
0001
0000
0010
0000
0100
0000
0001
0000
0100
0000
0001
1000
0010
0100
0010
0000
,
1000
0000
0001
1000
0001
1000
0001
1000
0001
0010
0100
1000
0100
0010
1001
0000
,
0110
0000
1000
0000
0010
0000
1000
0000
0001
0000
0100
0010
0001
0010
1000
0001
,
0100
0000
0010
0000
1000
0000
0100
0000
0010
0000
1000
0010
0001
0100
0010
0001
,
0010
0000
0100
0000
0001
0000
1000
0000
0001
0000
0100
0010
0001
1000
0001
0010
,
0100
0000
0001
0000
1000
0000
0001
0000
0010
0000
0100
1000
0010
0100
0010
0000
,
1000
0000
0100
0000
0010
0000
0100
0000
0001
0000
0100
1000
0100
0010
0001
0010
,
1000
0000
0010
0000
0001
0000
0100
0000
0010
0000
0001
0100
0010
0100
1000
0100
,
0010
0000
0001
0000
0010
0000
0100
0000
0010
0000
1000
0001
0100
0010
0001
0010
,
0100
0000
0001
0000
0010
0000
0001
0000
0100
0000
0010
1000
0100
1000
0010
0000
,
0000
0000
1000
0010
0100
0010
1000
0100
0010
0100
0010
0001
0100
0001
0100
0001
,
0010
0001
0010
0000
0001
0000
0100
0000
0010
0000
1000
0000
0100
0000
0010
0000
0100
0000
1000
0000
0001
0000
0100
0000
0010
0000
0001
0000
0010
0000
0100
0000
,
0001
0010
0100
1000
0100
0010
0100
0010
0001
0100
0001
1000
0100
0010
0100
1000
,
0010
0000
0000
0100
0000
0000
0001
0000
0000
1000
0000
0000
0010
0000
0100
0000
0010
0000
0100
0000
0000
0001
0000
0000
1000
0000
0010
0000
1000
0000
0010
0000
0000
0100
0000
0000
0010
0000
0000
1000
0000
0000
0001
0000
0000
0100
0000
0000
,
0010
0001
0010
0100
0001
0100
0010
0001
0010
0100
0010
1000
0100
0010
0100
0010
,
0100
0001
0100
0010
0001
0100
0010
0001
0010
1000
0010
0100
0001
1000
0001
0000
,
0000
0000
0000
1000
0000
1000
0000
1000
0000
0100
0000
0010
0000
0001
0000
1000
0000
1000
0000
1000
0000
0100
0000
0010
,
0000
0001
0000
1000
0000
1000
0000
1000
0000
0100
0000
0010
0000
0001
0000
1010
0001
0000
0001
0000
0001
0000
0010
0000
,
0100
0000
1000
0000
0011
1000
0000
1000
0000
1000
0000
0100
0000
0010
0000
0001
0000
1000
0000
1000
0000
1000
0000
0100
,
0000
0010
0000
0001
0000
1000
0000
0100
0000
1000
0000
0001
0000
0010
0000
0100
0000
1000
0000
0100
0000
1000
0000
0001
,
0000
0010
0000
0100
0000
1000
0000
0100
0000
1000
0000
0001
0000
0010
0000
0100
0000
1000
0000
0100
0000
0010
0000
0001
,
0000
0000
0000
0000
0000
0000
0000
0000
1000
0000
0000
0000
0000
0000
0000
0000
0000
0000
0000
0000
0000
0000
0000
0000
0100
0000
0000
0000
0000
0000
0000
0000
0000
0000
0000
0000
0000
0000
0000
0010
0000
0000
0000
0000
0000
0000
0000
0000
1000
0000
0000
0000
0000
0000
0000
0000
0000
0000
0000
0000
0001
0000
0000
0000
0000
0000
0000
0000
0000
0000
0000
0000
0100
0000
0000
0000
0000
0000
0000
0000
0000
0000
0000
0000
0010
0000
0000
0000
0000
0000
0000
0000
0000
0000
0000
0000
0100
0000
0000
0000
0000
0000
0000
0000
0000
0000
0000
0000
0001
0000
0000
0000
0000
0000
0000
0000
0000
0000
0000
0000
2000
0000
0000
0000
0000
0000
0000
0000
0000
0000
0000
0000
3000
0000
0000
0000
0000
0000
0000
0000
0000
0000
0000
0000
0001
0000
0000
0000
0000
0000
0000
0000
0000
0000
0000
0000
0100
0000
0000
0000
0000
0000
0000
0000
0000
0000
0000
0000
0010
0000
0000
0000
0000
0000
0000
0000
0000
0000
0000
0000
1000
0000
0000
0000
0000
0000
0000
0000
0000
0000
0000
0000
,
0001
0100
0020
0030
2000
3000
0010
0100
0001
0010
0100
1000
0020
0030
1000
0010
,
0100
0000
0000
0001
0000
0000
1000
0000
0000
0001
0000
0000
0010
0000
0100
0000
1000
0000
0000
0000
0000
0000
0000
0000
0001
0000
0000
1000
0000
0000
0010
0000
0000
0100
0000
0000
0001
0000
0000
1000
0000
0000
0020
0000
0000
0030
0000
0000
,
1000
0001
0100
0001
0010
0100
0002
0003
0200
0300
0001
0100
0010
1000
0001
0100
,
0020
0000
0000
0030
0000
0000
1000
0000
0000
0010
0000
0000
0100
0000
0000
0001
0000
0000
1000
0000
0000
0001
0000
0000
0100
0000
0010
0000
0001
0000
0000
0000
0000
0000
0000
0000
0010
0000
0100
0000
1000
0000
0000
0000
0000
0000
0000
0000
,
0010
0001
0100
0010
0100
0001
2000
3000
0001
0100
0010
1000
0001
0100
0020
0030
,
2000
3000
0010
0100
0001
0010
0100
1000
0020
0030
1000
0010
0100
0001
1000
0001
,
0010
0000
0100
0000
1000
0000
0000
0000
0000
0000
0000
0000
0001
0000
0000
1000
0000
0000
0010
0000
0000
0100
0000
0000
0001
0000
0000
1000
0000
0000
0020
0000
0000
0030
0000
0000
1000
0000
0000
0001
0000
0000
0100
0000
0000
0001
0000
0000
,
0010
0100
0002
0003
0020
0030
0001
0100
0010
1000
0001
0100
0020
0030
1000
0010
,
0100
0000
0000
0001
0000
0000
1000
0000
0000
0001
0000
0000
0100
0000
0010
0000
0001
0000
0000
0000
0000
0000
0000
0000
0010
0000
0100
0000
1000
0000
0000
0000
0000
0000
0000
0000
0100
0000
0010
0000
0001
0000
0000
0000
0000
0000
0000
0000
,
0010
0000
0000
0000
0000
0000
0000
0000
0100
0000
0000
0000
0000
0000
0000
0000
1000
0000
0000
0000
0000
0000
0000
0000
0000
0000
0000
0000
0000
0000
0000
0000
0000
0000
0000
0000
0000
0000
0000
0000
0000
0000
0000
0000
0000
0000
0000
0000
2002
0000
0000
0000
0000
0000
0000
0000
0000
0000
0000
0000
0000
0000
0000
0000
0000
0000
0000
0000
0000
0000
0000
0000
0000
0000
0000
0000
0000
0000
0000
0000
0000
0000
0000
0000
0000
0000
0000
0000
0000
0000
3003
0000
0000
0000
0000
0000
2020
0000
0000
0000
0000
0000
0000
0000
0000
0000
0000
0000
0000
0000
0000
0000
0000
0000
0000
0000
0000
0000
0000
0000
0000
0000
0000
0000
0000
0000
0000
0000
0000
0000
0000
0000
0000
0000
0000
0000
0000
0000
3030
0000
0000
0000
0000
0000
0010
0000
0000
0000
0000
0000
0000
0000
0000
0000
0000
0000
0000
0000
0000
0000
0000
0000
0000
0000
0000
0000
0000
0000
1000
0000
0000
0000
0000
0000
0000
0000
0000
0000
0000
0000
0000
0000
0000
0000
0000
0000
0000
0000
0000
0000
0000
0000
,
0010
0000
0000
0100
0000
0000
0001
0000
1000
0000
0000
0000
0010
0000
0000
0100
0000
0000
0010
0000
0000
1000
0000
0000
,
0001
0000
0000
0010
0000
0000
1000
0000
0001
0000
0000
0000
0100
0000
0000
0010
0000
0000
0001
0000
0000
0100
0000
0000
,
0010
0000
0000
1000
0000
0000
0001
0000
1000
0000
0000
0000
0010
0000
0000
0100
0000
0000
1000
0000
0000
0100
0000
0000
,
0010
0000
0000
1000
0000
0000
0100
0000
0010
0000
0000
0000
0100
0000
0000
1000
0000
0000
0100
0000
0000
0010
0000
0000
,
0001
0000
0100
0000
1000
0100
0010
0000
0001
0000
0010
0000
1000
0000
0100
0000
,
0010
0000
1000
0000
0100
0010
0001
0000
0010
0000
0001
0000
0010
0000
0001
0000
,
1000
0000
0010
0000
1000
0100
0010
0000
0001
0000
0100
0000
0001
1000
0001
1000
,
0010
0100
0010
0100
0001
1000
0001
1000
0010
0100
0010
0100
1001
0000
0100
0000
,
0010
0000
0000
0100
0000
0000
1000
0000
0001
0000
0000
0000
0100
0000
0000
0001
0000
0000
1000
0000
0000
0001
0000
0000
,
0100
0000
0000
0000
0000
0000
0001
0000
0000
1000
0000
0000
0001
0000
0000
0000
1000
0000
0000
0000
0000
0000
0000
0000
0010
0000
0000
0000
0000
0000
0100
0000
0000
0000
0000
0000
0001
0000
0000
0000
0000
0000
0010
0000
0000
0000
0000
0000
,
0100
0000
0000
0000
0000
0000
0010
0000
0000
0001
0000
0000
0100
0000
0000
0000
0010
0000
0000
0000
0000
0000
0000
0000
0100
0000
0000
0000
0000
0000
0001
0000
0000
0000
0000
0000
1000
0000
0000
0000
0000
0000
0001
0000
0000
0000
0000
0000
,
0100
0000
0000
0000
0000
0000
0010
0000
0000
0100
0000
0000
0010
0000
0000
0000
0100
0000
0000
0000
0000
0000
0000
0000
0001
0000
0000
0000
0000
0000
0100
0000
0000
0000
0000
0000
0010
0000
0000
0000
0000
0000
1000
0000
0000
0000
0000
0000
,
0010
0000
0100
0000
0010
0100
1000
0000
0100
0000
0010
0000
0001
0000
0010
0000
,
1000
0000
0010
0000
0100
0010
0001
0000
0010
0000
1000
0000
0001
0000
0010
0000
,
0100
0000
0010
0000
0001
0010
0100
0000
1000
0000
0010
0000
0100
0000
0010
0000
,
0001
0000
0100
0000
1000
0100
0010
0000
1000
0000
0001
0000
0100
0000
0010
0000
,
0100
0000
0001
0000
0100
0010
0001
0010
1000
0001
0010
0000
0001
0000
0100
0000
,
0010
0000
1000
0000
0010
0100
0001
0100
0010
1000
0100
0000
0010
0000
0001
0000
,
1000
0000
0100
0000
0010
0100
1000
0010
0100
0010
0001
0000
0010
0000
0100
0000
,
0010
0000
1000
0000
0100
1000
0001
0010
0001
0000
1000
0000
0010
0000
0100
0000
,
0001
0000
0010
0000
0100
1000
0100
0010
0001
0010
0100
0000
0010
0000
1000
0000
,
0010
0000
0100
0000
0010
1000
0010
0001
0100
0010
0001
0000
0010
0000
0100
0000
,
0001
0000
0100
0000
0001
1000
0010
0100
0010
0000
1000
0000
0001
1000
0001
1000
,
0001
1000
0001
0010
0100
1000
0100
0010
0001
0010
1001
0000
1000
0000
0010
0000
,
1000
0000
0001
0000
0100
0010
0001
0010
1000
0001
0100
0000
0010
0000
1000
0000
,
0100
0000
0010
0000
1000
0010
0001
0100
0010
0001
0010
0000
0100
0000
0001
0000
,
1000
0000
0001
0000
0100
0010
0001
1000
0001
0010
0100
0000
0001
1000
0001
1000
,
0010
0100
0010
0100
0001
1000
0001
1000
0010
0100
0010
0100
1001
0000
0010
0000
,
0100
0000
0001
0000
0100
1000
0100
0010
0001
0010
1000
0000
0010
0000
0001
0000
,
0100
0000
0010
0000
0001
0100
0010
0100
1000
0100
0010
0000
0001
0000
0010
0000
,
0100
0000
0010
0000
1000
0001
0100
0010
0001
0010
0100
0000
0001
0000
0010
0000
,
0100
0000
1000
0000
0100
0001
0100
0000
1010
0000
0001
0000
1100
0000
0110
0000
,
0001
0010
0100
1000
0100
0010
0001
1000
0010
0000
0100
0000
0010
0100
0001
1000
,
0010
0100
0001
0010
1000
0000
0010
0000
1000
0001
0100
0001
1000
0010
0100
1000
,
0010
0000
0000
0000
1000
0000
0000
0000
0011
0000
0000
0000
0110
0000
0000
0000
2020
0000
0000
3030
0011
0000
0000
0000
1010
0000
0000
0000
0100
0000
0010
0000
,
0100
0010
1000
0010
0001
0010
0100
0000
0010
0000
0010
0100
0010
1000
0100
0010
,
0001
0100
0001
0000
0010
0000
1000
0010
0100
0010
1000
0100
0010
0001
0100
0000
,
1010
0000
0000
0000
0110
0000
0000
0000
0011
0000
0000
0000
2020
0000
0000
3030
0110
0000
0000
0000
1000
0000
0000
0000
0100
0000
0000
0000
0010
0000
0000
0000
,
0001
0010
0100
1000
0100
0010
0001
1000
0010
0000
1000
0000
0100
0000
1000
0000
,
0010
0100
0001
1000
0010
0100
0001
0010
0001
0000
0001
0000
1000
0000
0100
0000
,
1000
0001
0100
0001
1000
0010
0100
1000
0010
0000
0100
0000
1000
0000
0100
0000
,
0010
1000
0010
1000
0220
0000
1330
0000
0011
0000
0110
0000
1000
0000
0001
0000
,
0100
0010
0100
0010
1000
0010
0001
0010
0100
0000
0010
0000
0010
0000
1000
0000
,
0010
0100
0010
1000
0100
0010
0001
0100
1000
0000
0010
0000
0100
0000
0001
0000
,
1000
0010
0100
0010
1000
0100
0010
0001
0100
0000
1010
0000
1100
0000
0000
0000
,
0010
0100
0010
0100
0010
0100
0010
0100
0010
0010
0010
0000
0001
0000
0100
0000
,
0010
0000
1000
0000
0010
0010
0010
0000
0100
0000
0001
0000
1000
0000
0001
0000
,
0010
0000
0000
0010
0000
0000
0010
0000
0000
0000
0000
0000
0001
0000
0000
0000
0000
0000
0100
0000
0000
0000
0000
0000
0001
0000
0000
0000
0010
0000
0000
0000
0100
0000
0000
0000
1000
0000
0000
0000
0001
0000
0000
0000
0010
0000
0000
0000
,
0100
0000
0000
0000
1000
0000
0000
0000
0001
0000
0000
0000
0010
0000
0000
0000
0100
0000
0000
0000
1000
0000
0000
0000
0001
0000
0000
0001
0000
0000
0001
0000
0000
0000
0000
0000
0100
0000
0000
0000
0000
0000
0010
0000
0000
0000
0000
0000
,
1000
0000
0010
0000
0100
0100
0100
0000
0010
0000
1000
0000
0001
0000
1000
0000
,
0100
0000
0000
0100
0000
0000
0100
0000
0000
0000
0000
0000
0010
0000
0000
0000
0000
0000
0100
0000
0000
0000
0000
0000
1000
0000
0000
0000
0100
0000
0000
0000
0010
0000
0000
0000
0001
0000
0000
0000
1000
0000
0000
0000
0100
0000
0000
0000
,
0010
0000
0000
0000
0001
0000
0000
0000
1000
0000
0000
0000
0100
0000
0000
0000
0010
0000
0000
0000
0001
0000
0000
0000
0100
0000
0000
0100
0000
0000
0100
0000
0000
0000
0000
0000
0001
0000
0000
0000
0000
0000
0010
0000
0000
0000
0000
0000
,
0001
0000
0010
0000
0100
0100
0100
0000
0010
0000
0001
0000
0010
0000
0100
0000
,
0010
0000
0000
0010
0000
0000
0010
0000
0000
0000
0000
0000
0100
0000
0000
0000
0000
0000
0010
0000
0000
0000
0000
0000
0001
0000
0000
0000
0010
0000
0000
0000
0100
0000
0000
0000
1000
0000
0000
0000
0001
0000
0000
0000
0010
0000
0000
0000
,
0100
0000
0000
0000
1000
0000
0000
0000
0001
0000
0000
0000
0010
0000
0000
0000
0100
0000
0000
0000
1000
0000
0000
0000
0100
0000
0000
0100
0000
0000
0100
0000
0000
0000
0000
0000
0001
0000
0000
0000
0000
0000
0100
0000
0000
0000
0000
0000
,
0010
0000
1000
0000
0010
0010
0010
0000
0100
0000
0001
0000
1000
0000
0001
0000
,
0010
0000
0000
0010
0000
0000
0010
0000
0000
0000
0000
0000
0001
0000
0000
0000
0000
0000
0100
0000
0000
0000
0000
0000
1000
0000
0000
0000
0100
0000
0000
0000
0010
0000
0000
0000
0001
0000
0000
0000
1000
0000
0000
0000
0100
0000
0000
0000
,
0010
0000
0001
0000
1000
0000
0100
0000
0010
0000
0001
0000
1100
0000
0000
1100
0000
0000
0101
0000
0000
1100
0000
0000
,
0000
1001
0010
0100
0001
1010
2002
0000
,
0000
3003
0110
0000
1010
0000
0000
0000
0011
0000
0000
0000
0000
0000
2000
0000
,
0000
0000
0000
0000
0000
0000
0000
0000
0000
0000
3000
0000
0002
0100
0010
0100
0010
0000
0000
0000
0010
0000
0103
0000
1010
0000
0000
0000
0000
0000
0110
0000
,
0000
0000
0000
0000
0011
0000
0000
0000
0200
0000
0000
0000
0000
0000
0000
0000
0000
0000
0000
0000
0000
0000
0300
0000
0011
0000
0000
0000
0000
0000
0010
0100
,
1000
0000
0002
0000
0000
0000
0000
0000
0000
0000
0003
0000
0110
0000
0000
0000
0000
0000
1010
0000
0000
0110
0000
0000
2002
0000
0000
0000
0000
0000
0000
0000
0000
0000
0000
0000
0000
0000
0000
3003
0000
0000
0110
0000
0000
0000
0000
0000
,
0101
0000
1100
0000
0000
0020
0000
0000
,
0000
0000
0030
0000
0002
0100
0010
0100
0010
0000
0000
0000
0100
0000
0013
0000
0101
0000
0000
0000
0000
0000
0110
0000
0000
0000
0000
0000
1100
0000
0000
0000
,
0020
0000
0000
0000
0000
0000
0000
0000
0000
0000
0000
0000
0000
0000
0000
0000
0000
0000
0000
0000
0000
0000
0000
0000
0000
0000
0000
0000
0000
0000
0000
0000
0000
0000
0000
0000
0000
0000
0000
0000
0000
0000
0000
0000
0000
0000
0000
0000
0000
0000
0000
0000
0000
0000
0000
0000
0000
0000
0000
0000
0000
0000
0000
0000
0000
0000
0000
0000
0000
0000
0000
0000
0000
0000
0000
0000
0000
0000
0000
0000
0000
0000
0000
0000
0030
0000
0000
0000
0000
0000
0000
0000
0000
0000
0000
0000
1100
0000
0000
0000
0000
0000
0000
0000
0000
0000
0000
0000
0000
0000
0000
0000
0000
0000
0000
0000
0000
0000
0000
0000
0000
0000
0000
0000
0000
0000
0100
0000
0000
0000
0000
0000
0001
0000
0000
0000
0000
0000
0100
0000
0000
0000
0000
0000
0001
0000
0000
0000
0000
0000
0000
0000
2000
0000
0000
0000
0000
0000
0000
0000
0000
0000
0000
0000
0000
0000
0000
0000
0000
0000
0000
0000
0000
0000
0000
0000
0000
0000
0000
0000
0000
0000
0000
0000
3000
0000
0000
0000
0000
0000
0000
0000
,
0110
0000
0000
0000
0100
0001
0100
0001
0100
0001
0100
0001
0100
0001
0100
0001
2000
0000
0000
0000
0000
0000
0000
0000
0000
0000
0000
0000
0101
0000
0000
0000
,
0110
0000
0000
0000
0011
0000
0000
0000
0000
3000
0200
0000
0000
0000
0002
0000
,
0000
0000
0303
0000
2000
0010
0100
0010
0100
0000
0000
0000
0010
0000
3100
0000
1010
0000
0000
0000
0000
0000
0110
0000
0000
0000
0000
0000
0011
0000
0000
0000
,
0200
0000
0000
0000
0000
0000
0000
0000
0000
0000
0000
0000
0000
0000
0000
0000
0000
0000
0000
0000
0000
0300
0000
0000
0011
0000
0000
0000
0000
0000
0100
0000
0000
0010
0000
0000
1000
0000
0002
0000
0000
0000
0000
0000
0000
0000
0003
0000
,
0110
0000
0000
0000
0000
0000
1010
0000
0000
0110
0000
0000
2002
0000
0000
0000
0000
0000
0000
0000
0000
0000
0000
0000
0000
0000
0000
3003
0000
0000
0110
0000
0000
0000
0000
0000
1010
0000
0000
0000
0100
0000
0001
0000
0000
0000
0000
0000
,
1000
0000
0000
0000
0010
0000
0000
0000
0001
0000
0000
0000
1000
0000
0000
0000
0001
0000
0000
0000
0200
0000
0000
0000
0000
0000
0000
0000
2300
0010
0100
0010
,
0100
0000
0000
0000
0000
0000
0000
0000
0000
3000
0000
0000
1000
0000
0100
0000
0010
0000
0001
0000
1000
0000
0100
0000
0010
0000
0000
0000
0000
0000
0000
0000
0000
0000
0000
0000
0001
0000
0000
0000
0000
0000
0000
0000
0010
0000
0000
0000
,
0000
0000
0000
0000
0000
0000
0000
0000
0000
0000
0000
0000
0000
0000
0000
0000
0100
0000
0000
0000
0000
0000
0000
0000
0000
0000
0000
0000
0000
0000
0000
0000
0000
0000
0000
0000
0000
0000
0000
0000
0000
0000
1000
0000
0000
0000
0000
0000
0001
0000
0000
0000
0000
0000
0000
0000
0010
0000
0000
0000
0000
0000
0000
0000
0100
0000
0000
0000
0000
0000
0000
0000
1000
0000
0000
0000
0000
0000
0000
0000
0100
0000
0000
0000
0000
0000
0000
0000
0010
0000
0000
0000
0000
0000
0000
0000
0001
0000
0000
0000
0000
0000
0000
0000
0000
0000
0000
0000
0000
0000
0000
0000
0000
0000
0000
0000
0000
0000
0000
0000
0000
0000
0000
0000
0000
0000
0000
0000
0000
0000
0000
0000
0000
0000
0000
0000
0000
0000
0000
0000
0000
0000
0000
0000
0110
0000
0000
0000
0000
0000
0000
0000
0000
0000
0000
0000
0000
0000
0000
0000
0000
0000
0000
0000
0000
0000
0000
0000
1001
0000
0000
0000
0000
0000
0000
0000
0000
0000
0000
0000
0000
0000
0000
0000
0000
0000
0000
0000
0000
0000
0000
0000
,
0110
1010
0101
0110
1001
0101
0011
1010
,
1100
1001
0110
1001
0101
1001
0101
1100
,
0101
1010
1001
1100
0110
0101
1010
1001
,
0101
0000
0000
0000
0110
0000
0000
0000
1001
0000
0000
0000
0101
0000
0000
0000
0220
0000
0000
0330
1010
0000
0000
0000
0110
0000
0000
0000
1010
0000
0000
0000
,
0202
0000
0000
0000
0000
0000
0000
0000
0000
0000
0000
0000
0000
0000
0000
0000
0000
0000
0303
0000
0000
0000
0000
0000
1001
0000
0000
0000
0000
0000
0000
0000
0000
0000
0000
0000
0000
0000
0000
0000
0000
0000
0000
0000
0000
0000
0000
0000
0110
0000
0000
0000
0000
0000
0000
0000
0000
0000
0000
0000
0000
0000
0000
0000
0000
0000
0000
0000
0000
0000
0000
0000
1010
0000
0000
0000
0000
0000
0000
0000
0000
0000
0000
0000
0000
0000
0000
0000
0000
0000
0000
0000
0000
0000
0000
0000
0002
0000
0000
0000
0000
0000
0000
0000
0100
0000
0000
0000
0000
0000
0000
0000
0010
0000
0003
0000
0000
0000
0000
0000
1000
0000
0000
0000
0000
0000
0000
0000
0000
0000
0000
0000
0000
0000
0000
0000
0000
0000
0000
0000
0000
0000
0000
0000
0110
0000
0000
0000
0000
0000
0000
0000
0000
0000
0000
0000
0000
0000
0000
0000
0000
0000
0000
0000
0000
0000
0000
0000
1010
0000
0000
0000
0000
0000
0000
0000
0000
0000
0000
0000
0000
0000
0000
0000
0000
0000
0000
0000
0000
0000
0000
0000
,
0202
0000
0000
0000
0000
0000
0000
0000
0000
0000
0000
0000
0000
0000
0000
0000
0000
0000
0303
0000
0000
0000
0000
0000
0011
0000
0000
0000
0000
0000
0000
0000
0000
0000
0000
0000
0000
0000
0000
0000
0000
0000
0000
0000
0000
0000
0000
0000
1001
0000
0000
0000
0000
0000
0000
0000
0000
0000
0000
0000
0000
0000
0000
0000
0000
0000
0000
0000
0000
0000
0000
0000
0110
0000
0000
0000
0000
0000
0000
0000
0000
0000
0000
0000
0000
0000
0000
0000
0000
0000
0000
0000
0000
0000
0000
0000
0002
0000
0000
0000
0000
0000
0000
0000
1000
0000
0000
0000
0000
0000
0000
0000
0010
0000
0003
0000
0000
0000
0000
0000
0100
0000
0000
0000
0000
0000
0000
0000
0000
0000
0000
0000
0000
0000
0000
0000
0000
0000
0000
0000
0000
0000
0000
0000
0110
0000
0000
0000
0000
0000
0000
0000
0000
0000
0000
0000
0000
0000
0000
0000
0000
0000
0000
0000
0000
0000
0000
0000
0011
0000
0000
0000
0000
0000
0000
0000
0000
0000
0000
0000
0000
0000
0000
0000
0000
0000
0000
0000
0000
0000
0000
0000
,
2020
0000
0000
3030
0110
0000
0000
0000
1010
0000
0000
0000
0101
0000
0000
0000
0022
0000
0000
0033
1001
0000
0000
0000
0010
0100
0010
0000
1001
0000
0000
0000
,
2020
0000
0000
3030
0110
0000
0000
0000
0001
0010
0001
0000
1100
0000
0000
0000
0220
0000
0000
0330
1001
0000
0000
0000
1100
0000
0000
0000
0011
0000
0000
0000
,
0220
0000
0000
0330
1001
0000
0000
0000
1100
0000
0000
0000
0101
0000
0000
0000
0022
0000
0000
0033
1100
0000
0000
0000
0110
0000
0000
0000
1001
0000
0000
0000
,
2020
0000
0000
3030
0110
0000
0000
0000
1010
0000
0000
0000
0101
0000
0000
0000
0022
0000
0000
0033
0101
0000
0000
0000
1001
0000
0000
0000
1100
0000
0000
0000
,
2002
0000
0000
3003
0101
0000
0000
0000
0011
0000
0000
0000
1001
0000
0000
0000
2200
0000
0000
3300
0110
0000
0000
0000
1010
0000
0000
0000
0101
0000
0000
0000
,
2002
0000
0000
3003
0110
0000
0000
0000
1010
0000
0000
0000
0101
0000
0000
0000
0022
0000
0000
0033
1000
0000
0010
0000
0100
0000
0010
0000
1000
0000
0100
0000
,
0010
0100
0010
0001
0100
0001
0100
0001
0010
0001
1000
0100
1000
0010
0100
0010
,
1000
0000
0100
0000
0010
0000
0001
0000
0100
0010
0100
0000
0001
0000
0100
0000
0001
0000
0010
0000
0100
0000
1000
0000
0100
0000
0010
0000
0100
0000
0010
0000
,
0001
0000
0000
0100
0000
0000
0001
0000
0000
1000
0000
0000
0100
0000
0000
0010
0000
0000
0100
0000
0000
1000
0000
0000
0010
0000
0000
0100
0000
0000
0001
0000
0000
1000
0000
0000
0010
0000
0100
0000
0010
0000
0100
0000
0000
0001
0000
0000
,
1000
0000
0010
0000
1000
0000
0010
0000
0000
0100
0000
0000
0010
0000
0000
1000
0000
0000
0001
0000
0000
0100
0000
0000
0010
0000
0000
0001
0000
0000
0010
0000
0000
0100
0000
0000
0001
0000
0000
0100
0000
0000
0010
0000
0000
0001
0000
0000
,
0010
0100
0010
1000
0100
0010
0100
0010
0100
0001
0100
0010
0001
0100
0010
0001
,
0010
0000
0000
1000
0000
0000
0010
0000
0000
0100
0000
0000
0001
0000
0000
1000
0000
0000
0001
0000
0000
0000
0000
0000
0000
0000
0000
0000
0000
0000
1000
0000
0000
0000
1000
0000
0000
0000
1000
0000
0000
0000
0100
0000
0000
0000
0010
0000
,
0000
0001
0000
1000
0000
1000
0000
1000
0000
0100
0000
0010
0000
0001
0000
1000
0000
1000
0000
1000
0000
0100
0000
0010
,
0000
0001
0000
1010
0000
0000
0001
0000
0001
0000
0001
0000
0010
0000
0100
0000
1000
0000
0011
0000
0000
0000
1000
0000
,
1000
1000
0100
0010
0001
1000
1000
1000
0100
0010
0001
1000
,
0100
1000
0001
0010
0100
1000
0100
1000
0001
0010
0100
1000
,
0100
1000
0001
0010
0100
1000
0100
0010
0001
1000
0100
0011
,
1000
0001
0100
0010
0100
0001
2000
3000
0001
0100
0010
1000
0001
0100
0020
0030
,
2000
3000
0010
0100
0001
0010
0100
1000
0020
0030
1000
0010
0100
0001
1000
0001
,
0010
0000
0100
0000
1000
0000
0000
0000
0000
0000
0000
0000
0001
0000
0000
1000
0000
0000
0010
0000
0000
0100
0000
0000
0001
0000
0000
1000
0000
0000
0020
0000
0000
0030
0000
0000
1000
0000
0000
0001
0000
0000
0100
0000
0000
0001
0000
0000
,
0010
0100
0002
0003
0200
0300
0001
0100
0010
1000
0001
0100
0020
0030
1000
0010
,
0100
0000
0000
0001
0000
0000
1000
0000
0000
0001
0000
0000
0100
0000
0010
0000
0001
0000
0000
0000
0000
0000
0000
0000
0010
0000
0100
0000
1000
0000
0000
0000
0000
0000
0000
0000
0010
0000
0000
0001
0000
0000
0100
0000
0000
0010
0000
0000
,
0100
0001
2000
3000
0001
0100
0010
1000
0001
0100
0020
0030
2000
3000
0010
0100
,
0001
0000
0000
0010
0000
0000
0100
0000
0000
1000
0000
0000
0020
0000
0000
0030
0000
0000
1000
0000
0000
0010
0000
0000
0100
0000
0000
0001
0000
0000
1000
0000
0000
0001
0000
0000
0010
0000
0100
0000
1000
0000
0000
0000
0000
0000
0000
0000
,
0001
1000
0010
0100
0001
1000
0020
0030
1000
0001
0100
0001
0010
0100
0002
0003
,
0020
0030
0001
0100
0010
1000
0001
0100
0020
0030
1000
0010
0100
0001
1000
0001
,
0100
0000
0000
0000
0000
0000
0000
0000
0010
0000
0000
0000
0000
0000
0000
0000
0001
0000
0000
0000
0000
0000
0000
0000
0000
0000
0000
0000
0000
0000
0000
0000
0000
0000
0000
0000
0000
0000
0000
0000
0000
0000
0000
0000
0000
0000
0000
0000
0010
0000
0000
0000
0000
0000
0000
0000
0100
0000
0000
0000
0000
0000
0000
0000
1000
0000
0000
0000
0000
0000
0000
0000
0000
0000
0000
0000
0000
0000
0000
0000
0000
0000
0000
0000
0000
0000
0000
0000
0000
0000
0000
0000
0000
0000
0000
0000
0100
0000
0000
0000
0000
0000
0000
0000
0010
0000
0000
0000
0000
0000
0000
0000
0001
0000
0000
0000
0000
0000
0000
0000
0000
0000
0000
0000
0000
0000
0000
0000
0000
0000
0000
0000
0000
0000
0000
0000
0000
0000
0000
0000
0000
0000
0000
0000
0010
0000
0000
0000
0000
0000
0000
0000
0100
0000
0000
0000
0000
0000
0000
1000
0000
0000
0000
0000
0000
0000
0000
0000
0000
0000
0000
0000
0000
0000
0000
0000
0000
0000
0000
0000
0000
0000
0000
0000
0000
0000
0000
0000
0000
0000
0000
0000
;
